Torrent Details

Glass 2019 720p HDCAM
Glass 2019 720p HDCAM
Size1.9 GB in 3 files
ReleasesAdded on 19.01.2019 at 1:42 into the Movies category by Unknown.
Status32 seeds & 16 peers.
Hash970112b7d0836f83c3a99f3660173526593f64de
Rating
  • YourBT Visitors

Status This torrent has been verified.
*

Torrent Description

Quote:





******************************Thumbnail:**********************







******************************Screenshots:********************



Screenshot 1



Screenshot 2



Screenshot 3



Screenshot 4



Screenshot 5



Screenshot 6



Screenshot 7



Screenshot 8



Screenshot 9



Screenshot 0





******************************************************





Glass 2019 720p HDCAM.LLG.mp4

Format                                   : MPEG-4

Format profile                           : Base Media

Codec ID                                 : isom (isom/iso2/avc1/mp41)

File size                                : 1.85 GiB

Duration                                 : 2 h 0 min

Overall bit rate mode                    : Variable

Overall bit rate                         : 2 196 kb/s





Video

ID                                       : 1

Format                                   : AVC

Format/Info                              : Advanced Video Codec

Format profile                           : [email protected]

Format settings                          : CABAC / 1 Ref Frames

Format settings, CABAC                   : Yes

Format settings, RefFrames               : 1 frame

Codec ID                                 : avc1

Codec ID/Info                            : Advanced Video Coding

Duration                                 : 2 h 0 min

Bit rate mode                            : Variable

Bit rate                                 : 2 001 kb/s

Maximum bit rate                         : 6 000 kb/s

Width                                    : 1 280 pixels

Height                                   : 536 pixels

Display aspect ratio                     : 2.40:1

Frame rate mode                          : Constant

Frame rate                               : 29.970 (29970/1000) FPS

Original frame rate                      : 29.970 (30000/1001) FPS

Color space                              : YUV

Chroma subsampling                       : 4:2:0

Bit depth                                : 8 bits

Scan type                                : Progressive

Bits/(Pixel*Frame)                       : 0.097

Stream size                              : 1.68 GiB (91%)





Audio

ID                                       : 2

Format                                   : AC-3

Format/Info                              : Audio Coding 3

Commercial name                          : Dolby Digital

Codec ID                                 : ac-3

Duration                                 : 2 h 0 min

Bit rate mode                            : Constant

Bit rate                                 : 192 kb/s

Channel(s)                               : 2 channels

Channel layout                           : L R

Sampling rate                            : 48.0 kHz

Frame rate                               : 31.250 FPS (1536 SPF)

Bit depth                                : 16 bits

Compression mode                         : Lossy

Stream size                              : 166 MiB (9%)

Service kind                             : Complete Main

Default                                  : Yes

Alternate group                          : 1







********************************************************



Similar Torrents

No Similar Torrents Found

If we find similar torrents, we normally show them right here. We couldn't find anything for "".

Torrent Trackers

TRACKER URLSEEDSPEERS
Onlineudp://tracker.coppersurfer.tk:6969/announce3210
Onlineudp://tracker.pirateparty.gr:6969/announce3010
Onlineudp://tracker.opentrackr.org:1337/announce2116
Onlineudp://tracker.open-internet.nl:6969/announce1810
Onlineudp://tracker.zer0day.to:1337/announce04

Files inside this torrent

FILENAMESIZE
icon SAMPLE 2.ts9.8 MB
icon SAMPLE 1.ts7.9 MB
icon Glass 2019 720p HDCAM.LLG.mp41.8 GB