Torrent Details

Hero No Zero 3 (2018) 720p Hindi Dubbed HDRip x264 AAC by Full4movies
Hero No Zero 3 (2018) 720p Hindi Dubbed HDRip x264 AAC by Full4movies
Size886 MB in 1 file
ReleasesAdded on 11/14/18 at 10:54am into the Movies category by Unknown.
Status0 seeds & 0 peers.
Hash632db061c2a4964992672a38fd4469af9440763b
Rating
  • YourBT Visitors

Status This torrent has been verified.
*

Torrent Description

General
Complete name : Hero No Zero 3 (2018) 720p Hindi Dubbed HDRip x264 AAC by Full4movies.mkv
Format : Matroska
Format version : Version 4 / Version 2
File size : 886 MiB
Duration : 2 h 0 min
Overall bit rate : 1 025 kb/s
Movie name : www.Full4movies.co
Encoded date : UTC 2018-11-14 04:47:38
Writing application : mkvmerge v8.1.0 ('Psychedelic Postcard') 32bit
Writing library : libebml v1.3.1 + libmatroska v1.4.2

Video
ID : 1
Format : AVC
Format/Info : Advanced Video Codec
Format profile : [email protected]
Format settings, CABAC : Yes
Format settings, RefFrames : 3 frames
Codec ID : V_MPEG4/ISO/AVC
Duration : 2 h 0 min
Bit rate : 895 kb/s
Width : 1 280 pixels
Height : 720 pixels
Display aspect ratio : 16:9
Frame rate mode : Constant
Frame rate : 25.000 FPS
Color space : YUV
Chroma subsampling : 4:2:0
Bit depth : 8 bits
Scan type : Progressive
Bits/(Pixel*Frame) : 0.039
Stream size : 774 MiB (87%)
Default : Yes
Forced : No
Color range : Limited
Color primaries : BT.709
Transfer characteristics : BT.709
Matrix coefficients : BT.709

Audio
ID : 2
Format : AAC
Format/Info : Advanced Audio Codec
Format profile : LC
Codec ID : A_AAC
Duration : 2 h 0 min
Bit rate : 128 kb/s
Channel(s) : 2 channels
Channel positions : Front: L R
Sampling rate : 44.1 kHz
Frame rate : 43.066 FPS (1024 SPF)
Compression mode : Lossy
Stream size : 111 MiB (12%)
Language : Hindi
Default : Yes
Forced : No

Screen Shoots



Similar Torrents

No Similar Torrents Found

If we find similar torrents, we normally show them right here. We couldn't find anything for "".

Torrent Trackers

Files inside this torrent

FILENAMESIZE
icon Hero No Zero 3 (2018) 720p Hindi Dubbed HDRip x264 AAC by Full4movies.mkv886.3 MB